Вход на сайт

Имя:
Пароль:

· Забыли пароль?
logo
Портал Форум
Регистрация Вход


Статистика раздачи

Размер: 442 MB | Зарегистрирован: 10 лет | Торрент скачан: 0 раз
new_topic  reply_topic

  (Pop) Алёна Лукас - Золотая рыбка 2007, FLAC (image + .cue)

pic
Год выпуска: 2007
Страна: Германия
Жанр: Pop
Продолжительность: ~ 73 минуты

Тип издания: альбом
Аудио кодек: FLAC
Тип рипа: (image + .cue)
Битрейт аудио: lossless


Трэклист:

01. Золотая рыбка (ремикс)
02. День и ночь
03. Поговори со мной
04. Вспомни ты
05. Хороший мой
06. Разные судьбы
07. Кучерявый паренёк
08. Разбитое стекло
09. Я жду лишь тебя
10. Коленками назад
11. Он и она
12. Первый рассвет
13. Не приходи
14. Дождь любви
15. Ла-ла-ла
16. День и ночь (караоке)
17. Коленками назад (караоке)

Код:

Exact Audio Copy V0.99 prebeta 5 from 4. May 2009

Отчёт EAC об извлечении, выполненном 4. декабря 2010, 16:13

Алёна Лукас / Золотая рыбка

Дисковод: JLMS    XJ-HD166S   Adapter: 0  ID: 1

Режим чтения                 : Достоверность
Использование точного потока : Да
Отключение кэша аудио        : Да
Использование указателей C2  : Нет

Коррекция смещения при чтении                     : 12
Способность читать области Lead-in и Lead-out     : Нет
Заполнение пропущенных сэмплов тишиной            : Да
Удаление блоков с тишиной в начале и конце        : Нет
При вычислениях CRC использовались нулевые сэмплы : Да
Интерфейс                                         : Встроенный Win32-интерфейс для Win NT/2000

Выходной формат : Внутренние WAV-операции
Формат сэмплов  : 44.100 Гц; 16 бит; стерео

TOC извлечённого CD

     Трек |   Старт  | Длительность | Начальный сектор | Конечный сектор
    ---------------------------------------------------------------------
       1  |  0:00.00 |    4:33.64   |           0      |      20538     
       2  |  4:33.64 |    3:53.56   |       20539      |      38069     
       3  |  8:27.45 |    4:55.18   |       38070      |      60212     
       4  | 13:22.63 |    4:28.51   |       60213      |      80363     
       5  | 17:51.39 |    3:56.37   |       80364      |      98100     
       6  | 21:48.01 |    4:33.11   |       98101      |     118586     
       7  | 26:21.12 |    3:35.08   |      118587      |     134719     
       8  | 29:56.20 |    5:22.45   |      134720      |     158914     
       9  | 35:18.65 |    4:59.63   |      158915      |     181402     
      10  | 40:18.53 |    3:17.27   |      181403      |     196204     
      11  | 43:36.05 |    5:02.03   |      196205      |     218857     
      12  | 48:38.08 |    4:24.24   |      218858      |     238681     
      13  | 53:02.32 |    4:47.13   |      238682      |     260219     
      14  | 57:49.45 |    3:55.61   |      260220      |     277905     
      15  | 61:45.31 |    4:25.64   |      277906      |     297844     
      16  | 66:11.20 |    3:52.55   |      297845      |     315299     
      17  | 70:04.00 |    3:13.36   |      315300      |     329810     

Характеристики диапазона извлечения и сообщения об ошибках

Выбранный диапазон

     Имя файла C:\Temp\Образы\Алёна Лукас - Золотая рыбка.wav

     Пиковый уровень 98.8 %
     Качество диапазона 99.9 %
     CRC теста BD798B4E
     CRC копии BD798B4E
     Копирование... OK

Ошибок не произошло

 
AccurateRip: сводка
 
Трек  1  нет в базе данных
Трек  2  нет в базе данных
Трек  3  нет в базе данных
Трек  4  нет в базе данных
Трек  5  нет в базе данных
Трек  6  нет в базе данных
Трек  7  нет в базе данных
Трек  8  нет в базе данных
Трек  9  нет в базе данных
Трек 10  нет в базе данных
Трек 11  нет в базе данных
Трек 12  нет в базе данных
Трек 13  нет в базе данных
Трек 14  нет в базе данных
Трек 15  нет в базе данных
Трек 16  нет в базе данных
Трек 17  нет в базе данных
 
Ни одного трека нет в базе AccurateRip

Конец отчёта
Данный материал из частной коллекции пользователя и носит характер объявления. Если вас заинтересовала данная тема, вы можете связаться с автором сообщения и обсудить детали обмена. Для более подробной информации прочтите правила обмена.

Страница 1 из 1

new_topic  reply_topic

Текущее время: 23-Сен 00:32
Часовой пояс: GMT + 4

m Сделано с любовью PR-CY.ru Каталог webplus.info