Вход на сайт

Имя:
Пароль:

· Забыли пароль?
logo
Портал Форум
Регистрация Вход


Статистика раздачи

Размер: 420 MB | Зарегистрирован: 10 лет | Торрент скачан: 0 раз
new_topic  reply_topic

  (Pop) Milena - Первая любовь 2004, FLAC (image + .cue)

pic
Год выпуска: 2004
Страна: Германия
Производитель: Германия
Жанр: Pop
Номер #: [ vladmusic ]
Продолжительность: ~ 57 минут


Тип издания: альбом
Аудио кодек: FLAC
Тип рипа: (image + .cue)
Битрейт аудио: lossless


Трэклист:

01. Первая любовь
02. Говори
03. Тебя мне будет не хватать
04. Мальчишка
05. Ты её бросишь
06. Прости
07. Слёзы
08. Падает снег
09. Позвони мне
10. Краски жизни
11. Шоколадка
12. Испанская любовь
13. Звезда
14. Не могу без тебя (Милена feat. Ж.Ангел)

Код:

Exact Audio Copy V0.99 prebeta 5 from 4. May 2009

Отчёт EAC об извлечении, выполненном 14. декабря 2010, 16:22

Milena / Первая любовь

Дисковод: JLMS    XJ-HD166S   Adapter: 0  ID: 1

Режим чтения                 : Достоверность
Использование точного потока : Да
Отключение кэша аудио        : Да
Использование указателей C2  : Нет

Коррекция смещения при чтении                     : 12
Способность читать области Lead-in и Lead-out     : Нет
Заполнение пропущенных сэмплов тишиной            : Да
Удаление блоков с тишиной в начале и конце        : Нет
При вычислениях CRC использовались нулевые сэмплы : Да
Интерфейс                                         : Встроенный Win32-интерфейс для Win NT/2000

Выходной формат : Внутренние WAV-операции
Формат сэмплов  : 44.100 Гц; 16 бит; стерео

TOC извлечённого CD

     Трек |   Старт  | Длительность | Начальный сектор | Конечный сектор
    ---------------------------------------------------------------------
       1  |  0:00.00 |    3:59.61   |           0      |      17985     
       2  |  3:59.61 |    4:36.40   |       17986      |      38725     
       3  |  8:36.26 |    3:34.72   |       38726      |      54847     
       4  | 12:11.23 |    4:03.15   |       54848      |      73087     
       5  | 16:14.38 |    4:32.62   |       73088      |      93549     
       6  | 20:47.25 |    4:11.69   |       93550      |     112443     
       7  | 24:59.19 |    5:36.52   |      112444      |     137695     
       8  | 30:35.71 |    3:40.50   |      137696      |     154245     
       9  | 34:16.46 |    3:10.57   |      154246      |     168552     
      10  | 37:27.28 |    4:07.66   |      168553      |     187143     
      11  | 41:35.19 |    3:55.17   |      187144      |     204785     
      12  | 45:30.36 |    3:18.24   |      204786      |     219659     
      13  | 48:48.60 |    3:53.34   |      219660      |     237168     
      14  | 52:42.19 |    3:42.26   |      237169      |     253844     

Характеристики диапазона извлечения и сообщения об ошибках

Выбранный диапазон

     Имя файла C:\Temp\Образы\Milena - Первая любовь.wav

     Пиковый уровень 100.0 %
     Качество диапазона 100.0 %
     CRC теста DF245CB1
     CRC копии DF245CB1
     Копирование... OK

Ошибок не произошло

 
AccurateRip: сводка
 
Трек  1  нет в базе данных
Трек  2  нет в базе данных
Трек  3  нет в базе данных
Трек  4  нет в базе данных
Трек  5  нет в базе данных
Трек  6  нет в базе данных
Трек  7  нет в базе данных
Трек  8  нет в базе данных
Трек  9  нет в базе данных
Трек 10  нет в базе данных
Трек 11  нет в базе данных
Трек 12  нет в базе данных
Трек 13  нет в базе данных
Трек 14  нет в базе данных
 
Ни одного трека нет в базе AccurateRip

Конец отчёта
Данный материал из частной коллекции пользователя и носит характер объявления. Если вас заинтересовала данная тема, вы можете связаться с автором сообщения и обсудить детали обмена. Для более подробной информации прочтите правила обмена.

Страница 1 из 1

new_topic  reply_topic

Текущее время: 23-Сен 00:03
Часовой пояс: GMT + 4

m Сделано с любовью PR-CY.ru Каталог webplus.info