Вход на сайт

Имя:
Пароль:

· Забыли пароль?
logo
Портал Форум
Регистрация Вход


Статистика раздачи

Размер: 465 MB | Зарегистрирован: 10 лет | Торрент скачан: 0 раз
new_topic  reply_topic

  (Pop) Алёна Лукас - С днем рождения 2007, FLAC (image + .cue)

pic
Год выпуска: 2007
Страна: Германия
Жанр: Pop
Продолжительность: ~ 76 минут


Тип издания: альбом
Аудио кодек: FLAC
Тип рипа: (image + .cue)
Битрейт аудио: lossless


Трэклист:

01. Пропадаю без тебя
02. Джин
03. Где любовь найти?
04. Зависть и ложь
05. Сосед
06. Снег
07. Ой-ой-ой
08. Один
09. Забудь его, забудь
10. Зелёные глаза
11. А ты не жалеешь
12. Ты говоришь
13. Саша + Наташа
14. Мама
15. Золотая рыбка (1 версия)
16. С днём рождения
17. А ты не жалеешь (Караоке)

Код:

Exact Audio Copy V0.99 prebeta 5 from 4. May 2009

Отчёт EAC об извлечении, выполненном 14. декабря 2010, 17:03

Алёна Лукас / С днем рождения

Дисковод: JLMS    XJ-HD166S   Adapter: 0  ID: 1

Режим чтения                 : Достоверность
Использование точного потока : Да
Отключение кэша аудио        : Да
Использование указателей C2  : Нет

Коррекция смещения при чтении                     : 12
Способность читать области Lead-in и Lead-out     : Нет
Заполнение пропущенных сэмплов тишиной            : Да
Удаление блоков с тишиной в начале и конце        : Нет
При вычислениях CRC использовались нулевые сэмплы : Да
Интерфейс                                         : Встроенный Win32-интерфейс для Win NT/2000

Выходной формат : Внутренние WAV-операции
Формат сэмплов  : 44.100 Гц; 16 бит; стерео

TOC извлечённого CD

     Трек |   Старт  | Длительность | Начальный сектор | Конечный сектор
    ---------------------------------------------------------------------
       1  |  0:00.00 |    5:02.26   |           0      |      22675     
       2  |  5:02.26 |    3:53.37   |       22676      |      40187     
       3  |  8:55.63 |    4:30.40   |       40188      |      60477     
       4  | 13:26.28 |    4:35.72   |       60478      |      81174     
       5  | 18:02.25 |    4:41.42   |       81175      |     102291     
       6  | 22:43.67 |    4:18.62   |      102292      |     121703     
       7  | 27:02.54 |    4:55.71   |      121704      |     143899     
       8  | 31:58.50 |    4:27.53   |      143900      |     163977     
       9  | 36:26.28 |    4:43.35   |      163978      |     185237     
      10  | 41:09.63 |    4:35.70   |      185238      |     205932     
      11  | 45:45.58 |    3:55.00   |      205933      |     223557     
      12  | 49:40.58 |    4:31.14   |      223558      |     243896     
      13  | 54:11.72 |    4:05.71   |      243897      |     262342     
      14  | 58:17.68 |    5:33.62   |      262343      |     287379     
      15  | 63:51.55 |    3:42.12   |      287380      |     304041     
      16  | 67:33.67 |    4:32.33   |      304042      |     324474     
      17  | 72:06.25 |    3:52.03   |      324475      |     341877     

Характеристики диапазона извлечения и сообщения об ошибках

Выбранный диапазон

     Имя файла C:\Temp\Образы\Алёна Лукас - С днем рождения.wav

     Пиковый уровень 100.0 %
     Качество диапазона 100.0 %
     CRC теста F3273CFA
     CRC копии F3273CFA
     Копирование... OK

Ошибок не произошло

 
AccurateRip: сводка
 
Трек  1  нет в базе данных
Трек  2  нет в базе данных
Трек  3  нет в базе данных
Трек  4  нет в базе данных
Трек  5  нет в базе данных
Трек  6  нет в базе данных
Трек  7  нет в базе данных
Трек  8  нет в базе данных
Трек  9  нет в базе данных
Трек 10  нет в базе данных
Трек 11  нет в базе данных
Трек 12  нет в базе данных
Трек 13  нет в базе данных
Трек 14  нет в базе данных
Трек 15  нет в базе данных
Трек 16  нет в базе данных
Трек 17  нет в базе данных
 
Ни одного трека нет в базе AccurateRip

Конец отчёта
Данный материал из частной коллекции пользователя и носит характер объявления. Если вас заинтересовала данная тема, вы можете связаться с автором сообщения и обсудить детали обмена. Для более подробной информации прочтите правила обмена.

Страница 1 из 1

new_topic  reply_topic

Текущее время: 23-Сен 01:01
Часовой пояс: GMT + 4

m Сделано с любовью PR-CY.ru Каталог webplus.info