Вход на сайт

Имя:
Пароль:

· Забыли пароль?
logo
Портал Форум
Регистрация Вход


Статистика раздачи

Размер: 382 MB | Зарегистрирован: 10 лет | Торрент скачан: 0 раз
new_topic  reply_topic

  (Pop) Руслан Марк & группа Окей! - Весёлая свадьба 2004, FLAC (image + .cue)

pic
Год выпуска: 2004
Страна: Германия
Производитель: Германия
Жанр: Pop
Номер #: WE-108 044 [ beilix ]
Продолжительность: ~ 57 минут


Тип издания: альбом
Аудио кодек: FLAC
Тип рипа: (image + .cue)
Битрейт аудио: lossless


Трэклист:

01. Свадьбу весело играем
02. Тёща моя тёща
03. Частушки свадебные
04. Свадьба пела
05. Первый свадебный вальс
06. Свадебная барыня
07. Подвенечное платье
08. Полечка
09. Русская душа
10. Снимается фата
11. С вами счастье рядом ...
12. Первый свадебный вальс (караоке)
13. Русская душа (караоке)
14. Снимается фата (караоке)

Код:

Exact Audio Copy V0.99 prebeta 5 from 4. May 2009

Отчёт EAC об извлечении, выполненном 25. декабря 2010, 5:02

Руслан Марк & группа Окей! / Весёлая свадьба

Дисковод: JLMS    XJ-HD166S   Adapter: 0  ID: 1

Режим чтения                 : Достоверность
Использование точного потока : Да
Отключение кэша аудио        : Да
Использование указателей C2  : Нет

Коррекция смещения при чтении                     : 12
Способность читать области Lead-in и Lead-out     : Нет
Заполнение пропущенных сэмплов тишиной            : Да
Удаление блоков с тишиной в начале и конце        : Нет
При вычислениях CRC использовались нулевые сэмплы : Да
Интерфейс                                         : Встроенный Win32-интерфейс для Win NT/2000

Выходной формат : Внутренние WAV-операции
Формат сэмплов  : 44.100 Гц; 16 бит; стерео

TOC извлечённого CD

     Трек |   Старт  | Длительность | Начальный сектор | Конечный сектор
    ---------------------------------------------------------------------
       1  |  0:00.00 |    3:35.62   |           0      |      16186     
       2  |  3:35.62 |    3:43.42   |       16187      |      32953     
       3  |  7:19.29 |    4:29.45   |       32954      |      53173     
       4  | 11:48.74 |    3:11.51   |       53174      |      67549     
       5  | 15:00.50 |    4:17.44   |       67550      |      86868     
       6  | 19:18.19 |    3:32.17   |       86869      |     102785     
       7  | 22:50.36 |    3:32.00   |      102786      |     118685     
       8  | 26:22.36 |    4:16.66   |      118686      |     137951     
       9  | 30:39.27 |    4:25.43   |      137952      |     157869     
      10  | 35:04.70 |    4:03.54   |      157870      |     176148     
      11  | 39:08.49 |    4:20.72   |      176149      |     195720     
      12  | 43:29.46 |    4:17.44   |      195721      |     215039     
      13  | 47:47.15 |    4:25.43   |      215040      |     234957     
      14  | 52:12.58 |    4:02.11   |      234958      |     253118     

Характеристики диапазона извлечения и сообщения об ошибках

Выбранный диапазон

     Имя файла C:\Temp\Образы\Руслан Марк & группа Окей! - Весёлая свадьба.wav

     Пиковый уровень 99.6 %
     Качество диапазона 99.9 %
     CRC теста 308B588E
     CRC копии 308B588E
     Копирование... OK

Ошибок не произошло

 
AccurateRip: сводка
 
Трек  1  нет в базе данных
Трек  2  нет в базе данных
Трек  3  нет в базе данных
Трек  4  нет в базе данных
Трек  5  нет в базе данных
Трек  6  нет в базе данных
Трек  7  нет в базе данных
Трек  8  нет в базе данных
Трек  9  нет в базе данных
Трек 10  нет в базе данных
Трек 11  нет в базе данных
Трек 12  нет в базе данных
Трек 13  нет в базе данных
Трек 14  нет в базе данных
 
Ни одного трека нет в базе AccurateRip

Конец отчёта
Данный материал из частной коллекции пользователя и носит характер объявления. Если вас заинтересовала данная тема, вы можете связаться с автором сообщения и обсудить детали обмена. Для более подробной информации прочтите правила обмена.

Страница 1 из 1

new_topic  reply_topic

Текущее время: 23-Сен 01:11
Часовой пояс: GMT + 4

m Сделано с любовью PR-CY.ru Каталог webplus.info