Вход на сайт

Имя:
Пароль:

· Забыли пароль?
logo
Портал Форум
Регистрация Вход


new_topic  reply_topic

  (Pop) Evelyn - Funny Bunny Boy 1998, FLAC (image + .cue)

pic
Год выпуска: 1998
Страна: Швеция
Жанр: Pop
Номер #: 0099835 ULT
Продолжительность: ~ 22 минуты


Тип издания: сингл
Аудио кодек: FLAC
Тип рипа: (image + .cue)
Битрейт аудио: lossless


Трэклист:

01. Funny Bunny Boy (Original Version)
02. Funny Bunny Boy (Special Version)
03. Funny Bunny Boy (Happy Easter Mix)
04. Funny Bunny Boy (Party Mix)
05. Funny Bunny Boy (Club Mix)

Код:

Exact Audio Copy V0.99 prebeta 5 from 4. May 2009

Отчёт EAC об извлечении, выполненном 3. января 2011, 17:06

Evelyn / Funny Bunny Boy

Дисковод: JLMS    XJ-HD166S   Adapter: 0  ID: 1

Режим чтения                 : Достоверность
Использование точного потока : Да
Отключение кэша аудио        : Да
Использование указателей C2  : Нет

Коррекция смещения при чтении                     : 12
Способность читать области Lead-in и Lead-out     : Нет
Заполнение пропущенных сэмплов тишиной            : Да
Удаление блоков с тишиной в начале и конце        : Нет
При вычислениях CRC использовались нулевые сэмплы : Да
Интерфейс                                         : Встроенный Win32-интерфейс для Win NT/2000

Выходной формат : Внутренние WAV-операции
Формат сэмплов  : 44.100 Гц; 16 бит; стерео

TOC извлечённого CD

     Трек |   Старт  | Длительность | Начальный сектор | Конечный сектор
    ---------------------------------------------------------------------
       1  |  0:00.00 |    3:38.62   |           0      |      16411     
       2  |  3:38.62 |    3:41.14   |       16412      |      33000     
       3  |  7:20.01 |    3:19.13   |       33001      |      47938     
       4  | 10:39.14 |    4:56.30   |       47939      |      70168     
       5  | 15:35.44 |    5:55.14   |       70169      |      96807     

Характеристики диапазона извлечения и сообщения об ошибках

Выбранный диапазон

     Имя файла C:\Temp\Образы\Evelyn - Funny Bunny Boy.wav

     Пиковый уровень 100.0 %
     Качество диапазона 100.0 %
     CRC теста 01553CAC
     CRC копии 01553CAC
     Копирование... OK

Ошибок не произошло

AccurateRip: сводка
 
Трек  1  нет в базе данных
Трек  2  нет в базе данных
Трек  3  нет в базе данных
Трек  4  нет в базе данных
Трек  5  нет в базе данных

 
Ни одного трека нет в базе AccurateRip

Конец отчёта
dimka007
Здравствуйте! А как бы скачать данный релиз?

dimka007
Здравствуйте! А как бы скачать данный релиз?

Страница 1 из 1

new_topic  reply_topic

Текущее время: 07-Май 05:27
Часовой пояс: GMT + 4

m Сделано с любовью PR-CY.ru Каталог webplus.info