Вход на сайт

Имя:
Пароль:

· Забыли пароль?
logo
Портал Форум
Регистрация Вход


Статистика раздачи

Размер: 318 MB | Зарегистрирован: 10 лет | Торрент скачан: 0 раз
new_topic  reply_topic

  (Pop) Алоя - Раз-два-три 2002, FLAC (image + .cue)

pic
Год выпуска: 2002
Страна: Германия
Жанр: Pop
Номер #: Beilix
Продолжительность: ~ 48 минут


Тип издания: альбом
Аудио кодек: FLAC
Тип рипа: (image + .cue)
Битрейт аудио: lossless


Трэклист:

01. Летчик
02. Раз-два-три
03. Студент
04. Где ты милый
05. Напиши мне
06. Кошки-мышки
07. Осень
08. Без тебя
09. Сашка
10. Капал дождь
11. В краю холодных стуж
12. Как знаешь

Код:

Exact Audio Copy V0.99 prebeta 5 from 4. May 2009

Отчёт EAC об извлечении, выполненном 6. января 2011, 7:55

Алоя / Раз-два-три

Дисковод: JLMS    XJ-HD166S   Adapter: 0  ID: 1

Режим чтения                 : Достоверность
Использование точного потока : Да
Отключение кэша аудио        : Да
Использование указателей C2  : Нет

Коррекция смещения при чтении                     : 12
Способность читать области Lead-in и Lead-out     : Нет
Заполнение пропущенных сэмплов тишиной            : Да
Удаление блоков с тишиной в начале и конце        : Нет
При вычислениях CRC использовались нулевые сэмплы : Да
Интерфейс                                         : Встроенный Win32-интерфейс для Win NT/2000

Выходной формат : Внутренние WAV-операции
Формат сэмплов  : 44.100 Гц; 16 бит; стерео

TOC извлечённого CD

     Трек |   Старт  | Длительность | Начальный сектор | Конечный сектор
    ---------------------------------------------------------------------
       1  |  0:00.00 |    4:09.71   |           0      |      18745     
       2  |  4:09.71 |    3:57.11   |       18746      |      36531     
       3  |  8:07.07 |    4:16.07   |       36532      |      55738     
       4  | 12:23.14 |    3:43.25   |       55739      |      72488     
       5  | 16:06.39 |    4:05.47   |       72489      |      90910     
       6  | 20:12.11 |    2:57.03   |       90911      |     104188     
       7  | 23:09.14 |    4:25.39   |      104189      |     124102     
       8  | 27:34.53 |    3:51.38   |      124103      |     141465     
       9  | 31:26.16 |    4:15.67   |      141466      |     160657     
      10  | 35:42.08 |    4:26.25   |      160658      |     180632     
      11  | 40:08.33 |    3:43.02   |      180633      |     197359     
      12  | 43:51.35 |    3:21.62   |      197360      |     212496     

Характеристики диапазона извлечения и сообщения об ошибках

Выбранный диапазон

     Имя файла C:\Temp\Образы\Алоя - Раз-два-три.wav

     Пиковый уровень 100.0 %
     Качество диапазона 100.0 %
     CRC теста D391A11E
     CRC копии D391A11E
     Копирование... OK

Ошибок не произошло

AccurateRip: сводка
 
Трек  1  нет в базе данных
Трек  2  нет в базе данных
Трек  3  нет в базе данных
Трек  4  нет в базе данных
Трек  5  нет в базе данных
Трек  6  нет в базе данных
Трек  7  нет в базе данных
Трек  8  нет в базе данных
Трек  9  нет в базе данных
Трек 10  нет в базе данных
Трек 11  нет в базе данных
Трек 12  нет в базе данных

 
Ни одного трека нет в базе AccurateRip

Конец отчёта
Данный материал из частной коллекции пользователя и носит характер объявления. Если вас заинтересовала данная тема, вы можете связаться с автором сообщения и обсудить детали обмена. Для более подробной информации прочтите правила обмена.

Страница 1 из 1

new_topic  reply_topic

Текущее время: 22-Сен 23:38
Часовой пояс: GMT + 4

m Сделано с любовью PR-CY.ru Каталог webplus.info