Вход на сайт

Имя:
Пароль:

· Забыли пароль?
logo
Портал Форум
Регистрация Вход


Статистика раздачи

Размер: 395 MB | Зарегистрирован: 10 лет | Торрент скачан: 0 раз
new_topic  reply_topic

  (Pop) Para-Dox - Наш балкон 2005, FLAC (image + .cue)

pic
Год выпуска: 2005
Страна: Германия
Жанр: Pop
Номер #: Wagner Media & Media Welt
Продолжительность: ~ 58 минут


Тип издания: альбом
Аудио кодек: FLAC
Тип рипа: (image + .cue)
Битрейт аудио: lossless
Трэклист:

01. Танец живота
02. Просто ты сегодня пьяна
03. Your Lady
04. Наш балкон
05. Кружится голова
06. Страшненький такой (Para-Dox & Jony)
07. Девчонка (Para-Dox & X-Zona)
08. Не прощу за это
09. Boom ля-ля (Para-Dox & S.E.R )
10. Дубай
11. Ну и что, ну и всё (Para-Dox & Jony)
12. Белый ангел
13. Балкон 2
14. Напиши мне (Para-Dox & Jony)
15. Your Lady (Remix)
16. Наш балкон (Remix)
17. Частушки

Код:

Exact Audio Copy V0.99 prebeta 5 from 4. May 2009

Отчёт EAC об извлечении, выполненном 7. января 2011, 23:06

Para-Dox / Наш балкон

Дисковод: JLMS    XJ-HD166S   Adapter: 0  ID: 1

Режим чтения                 : Достоверность
Использование точного потока : Да
Отключение кэша аудио        : Да
Использование указателей C2  : Нет

Коррекция смещения при чтении                     : 12
Способность читать области Lead-in и Lead-out     : Нет
Заполнение пропущенных сэмплов тишиной            : Да
Удаление блоков с тишиной в начале и конце        : Нет
При вычислениях CRC использовались нулевые сэмплы : Да
Интерфейс                                         : Встроенный Win32-интерфейс для Win NT/2000

Выходной формат : Внутренние WAV-операции
Формат сэмплов  : 44.100 Гц; 16 бит; стерео

TOC извлечённого CD

     Трек |   Старт  | Длительность | Начальный сектор | Конечный сектор
    ---------------------------------------------------------------------
       1  |  0:00.00 |    3:25.36   |           0      |      15410     
       2  |  3:25.36 |    3:28.22   |       15411      |      31032     
       3  |  6:53.58 |    3:50.52   |       31033      |      48334     
       4  | 10:44.35 |    3:23.39   |       48335      |      63598     
       5  | 14:07.74 |    3:19.70   |       63599      |      78593     
       6  | 17:27.69 |    3:20.52   |       78594      |      93645     
       7  | 20:48.46 |    3:46.42   |       93646      |     110637     
       8  | 24:35.13 |    3:01.31   |      110638      |     124243     
       9  | 27:36.44 |    3:30.32   |      124244      |     140025     
      10  | 31:07.01 |    3:31.34   |      140026      |     155884     
      11  | 34:38.35 |    2:06.47   |      155885      |     165381     
      12  | 36:45.07 |    3:56.47   |      165382      |     183128     
      13  | 40:41.54 |    3:39.10   |      183129      |     199563     
      14  | 44:20.64 |    2:50.05   |      199564      |     212318     
      15  | 47:10.69 |    3:27.04   |      212319      |     227847     
      16  | 50:37.73 |    3:33.05   |      227848      |     243827     
      17  | 54:11.03 |    3:05.38   |      243828      |     257740     

Характеристики диапазона извлечения и сообщения об ошибках

Выбранный диапазон

     Имя файла C:\Temp\Образы\Para-Dox - Наш балкон.wav

     Пиковый уровень 100.0 %
     Качество диапазона 99.9 %
     CRC теста BA6BEF59
     CRC копии BA6BEF59
     Копирование... OK

Ошибок не произошло

AccurateRip: сводка
 
Трек  1  нет в базе данных
Трек  2  нет в базе данных
Трек  3  нет в базе данных
Трек  4  нет в базе данных
Трек  5  нет в базе данных
Трек  6  нет в базе данных
Трек  7  нет в базе данных
Трек  8  нет в базе данных
Трек  9  нет в базе данных
Трек 10  нет в базе данных
Трек 11  нет в базе данных
Трек 12  нет в базе данных
Трек 13  нет в базе данных
Трек 14  нет в базе данных
Трек 15  нет в базе данных
Трек 16  нет в базе данных
Трек 17  нет в базе данных

 
Ни одного трека нет в базе AccurateRip

Конец отчёта
Данный материал из частной коллекции пользователя и носит характер объявления. Если вас заинтересовала данная тема, вы можете связаться с автором сообщения и обсудить детали обмена. Для более подробной информации прочтите правила обмена.

Страница 1 из 1

new_topic  reply_topic

Текущее время: 23-Сен 00:57
Часовой пояс: GMT + 4

m Сделано с любовью PR-CY.ru Каталог webplus.info