Вход на сайт

Имя:
Пароль:

· Забыли пароль?
logo
Портал Форум
Регистрация Вход


new_topic  reply_topic

  (Trance) Caater - Space Invasion - 1999, FLAC (image + .cue)

pic
Год выпуска: 1999
Страна: Эстония
Жанр: Trance
Номер #: CPCD006
Продолжительность: 0:52:43

Тип издания: альбом
Аудио кодек: FLAC
Тип рипа: (image + .cue)
Битрейт аудио: lossless

Треклист:

  1. Caater 2000
  2. Reality
  3. King Size
  4. Saturn 5
  5. Let There Be Sound
  6. The Night
  7. Phantom
  8. Beat This
  9. Lifestyle
  10. Sinuta (Feat. Hanna Pruuli)
  11. You (Feat. - Anaconda)

Код:

Exact Audio Copy V0.99 prebeta 5 from 4. May 2009

Отчёт EAC об извлечении, выполненном 18. февраля 2011, 21:57

Caater / Space Invasion

Дисковод: JLMS    XJ-HD166S   Adapter: 0  ID: 1

Режим чтения                 : Достоверность
Использование точного потока : Да
Отключение кэша аудио        : Да
Использование указателей C2  : Нет

Коррекция смещения при чтении                     : 12
Способность читать области Lead-in и Lead-out     : Нет
Заполнение пропущенных сэмплов тишиной            : Да
Удаление блоков с тишиной в начале и конце        : Нет
При вычислениях CRC использовались нулевые сэмплы : Да
Интерфейс                                         : Встроенный Win32-интерфейс для Win NT/2000

Выходной формат : Внутренние WAV-операции
Формат сэмплов  : 44.100 Гц; 16 бит; стерео

TOC извлечённого CD

     Трек |   Старт  | Длительность | Начальный сектор | Конечный сектор
    ---------------------------------------------------------------------
       1  |  0:00.00 |    3:29.65   |           0      |      15739     
       2  |  3:29.65 |    5:41.19   |       15740      |      41333     
       3  |  9:11.09 |    6:23.29   |       41334      |      70087     
       4  | 15:34.38 |    4:37.12   |       70088      |      90874     
       5  | 20:11.50 |    5:44.66   |       90875      |     116740     
       6  | 25:56.41 |    4:04.04   |      116741      |     135044     
       7  | 30:00.45 |    3:30.34   |      135045      |     150828     
       8  | 33:31.04 |    6:28.59   |      150829      |     179987     
       9  | 39:59.63 |    5:16.29   |      179988      |     203716     
      10  | 45:16.17 |    3:35.46   |      203717      |     219887     
      11  | 48:51.63 |    3:51.65   |      219888      |     237277     

Характеристики диапазона извлечения и сообщения об ошибках

Выбранный диапазон

     Имя файла C:\Temp\Caater - Space Invasion.wav

     Пиковый уровень 99.4 %
     Качество диапазона 100.0 %
     CRC теста 7F832DCB
     CRC копии 7F832DCB
     Копирование... OK

Ошибок не произошло

 
AccurateRip: сводка
 
Трек  1  нет в базе данных
Трек  2  нет в базе данных
Трек  3  нет в базе данных
Трек  4  нет в базе данных
Трек  5  нет в базе данных
Трек  6  нет в базе данных
Трек  7  нет в базе данных
Трек  8  нет в базе данных
Трек  9  нет в базе данных
Трек 10  нет в базе данных
Трек 11  нет в базе данных
 
Ни одного трека нет в базе AccurateRip

Конец отчёта
pic
Релиз: pic
dimassamid прикольный альбом, уже второй круг пилит. Спасибо тебе за рар
dimassamid это просто супер! Убойный рар, спасибище
Alex2GB
Если нужны будут также другие альбомы из дискографии - обращайся
Спасибо!!!
dimassamid поставь 1999 год.
Alex2GB Ну если вы просите ))
dimassamid
dimassamidпривет спасибо тебе огромное за твои релизы я тут первый раз скажи пожалуйста а как скачать альбом каатер

Страница 1 из 1

new_topic  reply_topic

Текущее время: 23-Сен 01:14
Часовой пояс: GMT + 4

m Сделано с любовью PR-CY.ru Каталог webplus.info