Вход на сайт

Имя:
Пароль:

· Забыли пароль?
logo
Портал Форум
Регистрация Вход


Статистика раздачи

Размер: 362 MB | Зарегистрирован: 10 лет | Торрент скачан: 0 раз
new_topic  reply_topic

  (Pop) Coupe - Тайна небесных грёз 1998, FLAC (image + .cue)

pic
Год выпуска: 1998
Страна: Германия
Жанр: Pop
Номер #: 3194062
Продолжительность: ~ 50 минут

Тип издания: альбом
Аудио кодек: FLAC
Тип рипа: (image + .cue)
Битрейт аудио: lossless


Трэклист:

01. Письмо
02. Я не знаю
03. Али-Баба
04. Осень
05. Немец из Одессы
06. Надоело
07. Странное чудо любовь
08. Танцы в лунную ночь
09. Страна Германия - Лимония
10. Oh, Susanna
11. Слова цыганки
12. Расскажи
13. Тайна небесных грёз

Код:

Exact Audio Copy V0.99 prebeta 5 from 4. May 2009

Отчёт EAC об извлечении, выполненном 9. марта 2011, 15:16

Coupe / Тайна небесных грёз

Дисковод: JLMS    XJ-HD166S   Adapter: 0  ID: 1

Режим чтения                 : Достоверность
Использование точного потока : Да
Отключение кэша аудио        : Да
Использование указателей C2  : Нет

Коррекция смещения при чтении                     : 12
Способность читать области Lead-in и Lead-out     : Нет
Заполнение пропущенных сэмплов тишиной            : Да
Удаление блоков с тишиной в начале и конце        : Нет
При вычислениях CRC использовались нулевые сэмплы : Да
Интерфейс                                         : Встроенный Win32-интерфейс для Win NT/2000

Выходной формат : Внутренние WAV-операции
Формат сэмплов  : 44.100 Гц; 16 бит; стерео

TOC извлечённого CD

     Трек |   Старт  | Длительность | Начальный сектор | Конечный сектор
    ---------------------------------------------------------------------
       1  |  0:00.00 |    3:41.46   |           0      |      16620     
       2  |  3:41.46 |    3:56.55   |       16621      |      34375     
       3  |  7:38.26 |    3:34.66   |       34376      |      50491     
       4  | 11:13.17 |    3:23.36   |       50492      |      65752     
       5  | 14:36.53 |    3:39.19   |       65753      |      82196     
       6  | 18:15.72 |    2:57.08   |       82197      |      95479     
       7  | 21:13.05 |    3:45.64   |       95480      |     112418     
       8  | 24:58.69 |    4:31.72   |      112419      |     132815     
       9  | 29:30.66 |    3:00.73   |      132816      |     146388     
      10  | 32:31.64 |    5:46.04   |      146389      |     172342     
      11  | 38:17.68 |    4:05.70   |      172343      |     190787     
      12  | 42:23.63 |    3:16.44   |      190788      |     205531     
      13  | 45:40.32 |    3:59.70   |      205532      |     223526     

Характеристики диапазона извлечения и сообщения об ошибках

Выбранный диапазон

     Имя файла C:\Temp\Образы\Coupe - Тайна небесных грёз.wav

     Пиковый уровень 100.0 %
     Качество диапазона 100.0 %
     CRC теста E62406A0
     CRC копии E62406A0
     Копирование... OK

Ошибок не произошло

 
AccurateRip: сводка
 
Трек  1  нет в базе данных
Трек  2  нет в базе данных
Трек  3  нет в базе данных
Трек  4  нет в базе данных
Трек  5  нет в базе данных
Трек  6  нет в базе данных
Трек  7  нет в базе данных
Трек  8  нет в базе данных
Трек  9  нет в базе данных
Трек 10  нет в базе данных
Трек 11  нет в базе данных
Трек 12  нет в базе данных
Трек 13  нет в базе данных
 
Ни одного трека нет в базе AccurateRip

Конец отчёта
Данный материал из частной коллекции пользователя и носит характер объявления. Если вас заинтересовала данная тема, вы можете связаться с автором сообщения и обсудить детали обмена. Для более подробной информации прочтите правила обмена.

Страница 1 из 1

new_topic  reply_topic

Текущее время: 23-Сен 01:19
Часовой пояс: GMT + 4

m Сделано с любовью PR-CY.ru Каталог webplus.info