Вход на сайт

Имя:
Пароль:

· Забыли пароль?
logo
Портал Форум
Регистрация Вход


Статистика раздачи

Размер: 402 MB | Зарегистрирован: 10 лет | Торрент скачан: 0 раз
new_topic  reply_topic

  (Pop) Coupe & Anilasor - Самый клевый 2003, FLAC (image + .cue)

pic
Год выпуска: 2003
Страна: Германия
Жанр: Pop
Номер #: CO-93 113
Продолжительность: ~ 54 минуты

Тип издания: альбом
Аудио кодек: FLAC
Тип рипа: (image + .cue)
Битрейт аудио: lossless


Трэклист:

01. Самый клевый
02. Восточные танцы
03. На Кавказе
04. По дорогам Азии
05. Дым
06. Бродяга
07. Ты была
08. Подари мне любовь
09. Украли
10. День рождения
11. Джамиля
12. Лети
13. Подари мне любовь (караоке)
14. Самый клевый (караоке)

Код:

Exact Audio Copy V0.99 prebeta 5 from 4. May 2009

Отчёт EAC об извлечении, выполненном 9. марта 2011, 16:24

Coupe & Anilasor / Самый клёвый

Дисковод: JLMS    XJ-HD166S   Adapter: 0  ID: 1

Режим чтения                 : Достоверность
Использование точного потока : Да
Отключение кэша аудио        : Да
Использование указателей C2  : Нет

Коррекция смещения при чтении                     : 12
Способность читать области Lead-in и Lead-out     : Нет
Заполнение пропущенных сэмплов тишиной            : Да
Удаление блоков с тишиной в начале и конце        : Нет
При вычислениях CRC использовались нулевые сэмплы : Да
Интерфейс                                         : Встроенный Win32-интерфейс для Win NT/2000

Выходной формат : Внутренние WAV-операции
Формат сэмплов  : 44.100 Гц; 16 бит; стерео

TOC извлечённого CD

     Трек |   Старт  | Длительность | Начальный сектор | Конечный сектор
    ---------------------------------------------------------------------
       1  |  0:00.00 |    3:27.31   |           0      |      15555     
       2  |  3:27.31 |    4:04.12   |       15556      |      33867     
       3  |  7:31.43 |    3:36.71   |       33868      |      50138     
       4  | 11:08.39 |    3:47.37   |       50139      |      67200     
       5  | 14:56.01 |    3:45.71   |       67201      |      84146     
       6  | 18:41.72 |    3:46.61   |       84147      |     101157     
       7  | 22:28.58 |    3:38.05   |      101158      |     117512     
       8  | 26:06.63 |    4:01.46   |      117513      |     135633     
       9  | 30:08.34 |    3:31.44   |      135634      |     151502     
      10  | 33:40.03 |    3:43.72   |      151503      |     168299     
      11  | 37:24.00 |    3:58.31   |      168300      |     186180     
      12  | 41:22.31 |    4:16.69   |      186181      |     205449     
      13  | 45:39.25 |    4:05.51   |      205450      |     223875     
      14  | 49:45.01 |    3:25.48   |      223876      |     239298     

Характеристики диапазона извлечения и сообщения об ошибках

Выбранный диапазон

     Имя файла C:\Temp\Образы\Coupe & Anilasor - Самый клёвый.wav

     Пиковый уровень 99.9 %
     Качество диапазона 100.0 %
     CRC теста 6C2F9883
     CRC копии 6C2F9883
     Копирование... OK

Ошибок не произошло

 
AccurateRip: сводка
 
Трек  1  нет в базе данных
Трек  2  нет в базе данных
Трек  3  нет в базе данных
Трек  4  нет в базе данных
Трек  5  нет в базе данных
Трек  6  нет в базе данных
Трек  7  нет в базе данных
Трек  8  нет в базе данных
Трек  9  нет в базе данных
Трек 10  нет в базе данных
Трек 11  нет в базе данных
Трек 12  нет в базе данных
Трек 13  нет в базе данных
Трек 14  нет в базе данных
 
Ни одного трека нет в базе AccurateRip

Конец отчёта
Данный материал из частной коллекции пользователя и носит характер объявления. Если вас заинтересовала данная тема, вы можете связаться с автором сообщения и обсудить детали обмена. Для более подробной информации прочтите правила обмена.
ух сколько Coupe

Страница 1 из 1

new_topic  reply_topic

Текущее время: 23-Сен 00:04
Часовой пояс: GMT + 4

m Сделано с любовью PR-CY.ru Каталог webplus.info