Вход на сайт

Имя:
Пароль:

· Забыли пароль?
logo
Портал Форум
Регистрация Вход


new_topic  reply_topic

  (Pop / Rock ) Vanilla Ninja - Vanilla Ninja - 2003, FLAC (image + .cue)

pic
Год выпуска: 2003
Страна: Эстония
Жанр: Pop / Rock
Номер #: TOPCD1112 (TopTen)
Продолжительность: 0:52:13

Тип контента: альбом
Аудио кодек: FLAC
Тип рипа: (image + .cue)
Битрейт аудио: lossless

Треклист:

  1. Guitar And Old Blue Jeans
  2. Why?
  3. Club Kung Fu
  4. Nagu Rockstaar
  5. Purunematu
  6. Inner Radio
  7. Outcast
  8. Toxic
  9. Spit It Out
  10. Psycho
  11. Klubikuningad
  12. Polluter
  13. Vanad Teksad Ja Kitarr
  14. Sugar And Honey
  15. Club Kung Fu (D'N'B RMX)

Код:

Exact Audio Copy V0.99 prebeta 5 from 4. May 2009

Отчёт EAC об извлечении, выполненном 16. апреля 2011, 14:47

Vanilla Ninja / Vanilla Ninja

Дисковод: SlimtypeDVD A  DS8A3S   Adapter: 1  ID: 0

Режим чтения                 : Достоверность
Использование точного потока : Да
Отключение кэша аудио        : Да
Использование указателей C2  : Нет

Коррекция смещения при чтении                     : 6
Способность читать области Lead-in и Lead-out     : Нет
Заполнение пропущенных сэмплов тишиной            : Да
Удаление блоков с тишиной в начале и конце        : Нет
При вычислениях CRC использовались нулевые сэмплы : Да
Интерфейс                                         : Встроенный Win32-интерфейс для Win NT/2000

Выходной формат : Внутренние WAV-операции
Формат сэмплов  : 44.100 Гц; 16 бит; стерео

TOC извлечённого CD

     Трек |   Старт  | Длительность | Начальный сектор | Конечный сектор
    ---------------------------------------------------------------------
       1  |  0:00.00 |    4:01.49   |           0      |      18123     
       2  |  4:01.49 |    3:21.12   |       18124      |      33210     
       3  |  7:22.61 |    2:43.66   |       33211      |      45501     
       4  | 10:06.52 |    4:04.51   |       45502      |      63852     
       5  | 14:11.28 |    3:25.63   |       63853      |      79290     
       6  | 17:37.16 |    3:01.50   |       79291      |      92915     
       7  | 20:38.66 |    4:00.00   |       92916      |     110915     
       8  | 24:38.66 |    2:22.15   |      110916      |     121580     
       9  | 27:01.06 |    4:46.61   |      121581      |     143091     
      10  | 31:47.67 |    3:15.67   |      143092      |     157783     
      11  | 35:03.59 |    2:08.16   |      157784      |     167399     
      12  | 37:12.00 |    3:23.38   |      167400      |     182662     
      13  | 40:35.38 |    3:42.40   |      182663      |     199352     
      14  | 44:18.03 |    3:28.54   |      199353      |     215006     
      15  | 47:46.57 |    4:27.11   |      215007      |     235042     

Характеристики диапазона извлечения и сообщения об ошибках

Выбранный диапазон

     Имя файла C:\Users\Дмитрий\Desktop\Новая папка\van\Vanilla Ninja - Vanilla Ninja.wav

     Пиковый уровень 97.7 %
     Качество диапазона 100.0 %
     CRC копии 0AC6B20A
     Копирование... OK

Ошибок не произошло

 
AccurateRip: сводка
 
Трек  1  точное извлечение (доверие 1)  [F1935CA5]
Трек  2  точное извлечение (доверие 1)  [C6F9BC65]
Трек  3  точное извлечение (доверие 1)  [BAB5BFFF]
Трек  4  точное извлечение (доверие 1)  [CD2A7F85]
Трек  5  точное извлечение (доверие 1)  [55B98C5B]
Трек  6  точное извлечение (доверие 1)  [9D190B6F]
Трек  7  точное извлечение (доверие 1)  [5BF88DB4]
Трек  8  точное извлечение (доверие 1)  [8E59DD60]
Трек  9  точное извлечение (доверие 1)  [B249E6BB]
Трек 10  точное извлечение (доверие 1)  [21219867]
Трек 11  точное извлечение (доверие 1)  [F8170895]
Трек 12  точное извлечение (доверие 1)  [3C73E117]
Трек 13  точное извлечение (доверие 1)  [01CE968F]
Трек 14  точное извлечение (доверие 1)  [7C3EA479]
Трек 15  точное извлечение (доверие 1)  [B37B9D27]
 
Все треки извлечены точно

Конец отчёта
Релиз: pic
dimassamid спасибо тебе за мега рар моей любимой группы
13 трек ВеСчь
Alex2GB их творчество отличное.
dimka007, да неплохо девки отжигают.
Очень редкий альбом!

Выступление Ванильки с песней Inner Radio
this isn't translated very well. where is the link or file?
Can someone please share the link?? I can't PM dimassamid.

Страница 1 из 1

new_topic  reply_topic

Текущее время: 23-Сен 00:49
Часовой пояс: GMT + 4

m Сделано с любовью PR-CY.ru Каталог webplus.info