Вход на сайт

Имя:
Пароль:

· Забыли пароль?
logo
Портал Форум
Регистрация Вход


new_topic  reply_topic

  (Pop) Kuumad Eesti Hitid. 20 Kuuma Lugu - 2000, FLAC (image + .cue)

Kuumad Eesti Hitid. 20 Kuuma Lugu
Горячие эстонские хиты. 20 горячих песен


pic
Год выпуска: 2000
Страна: Эстония
Жанр: Pop
Номер #: REC 9574.2 (Records 2000)
Продолжительность: 1:08:38

Тип издания: сборник
Аудио кодек: FLAC
Тип рипа: (image + .cue)
Битрейт аудио: lossless

Треклист:

  1. N-Euro - Hei Mister Nool!
  2. Kadi Toom - Leides
  3. Smilers - Sinu Süles
  4. Push Up - Halloo
  5. Cooma - Constance
  6. The Tuberkoloited - Süsimust Roos
  7. Anaconda - Veel, Veel, Veel
  8. Van Gogh - More Than Love
  9. Stina - Veel Veidi
  10. Dagö - Hei Tuul (Dance Mix)
  11. Caater - Phantom (Dream Radio Version)
  12. Mono Fans - See Laul On Igatsusest
  13. Jüri Homenja - Klaver (Dance Remix)
  14. No Big Silence - On The Hunt
  15. Sobe - Võta Mind
  16. Vennaskond - 101.Kilomeeter
  17. Jam - Veel Üks Kord
  18. Koit Toome - Vikerkaar
  19. Eucalyptica - Maybe
  20. Jaxy - Perfect Day

Код:

Exact Audio Copy V0.99 prebeta 5 from 4. May 2009

Отчёт EAC об извлечении, выполненном 9. апреля 2014, 19:46

Various Artists / Kuumad Eesti Hitid

Дисковод: TSSTcorpCDDVDW SH-224BB   Adapter: 3  ID: 0

Режим чтения                 : Достоверность
Использование точного потока : Да
Отключение кэша аудио        : Да
Использование указателей C2  : Нет

Коррекция смещения при чтении                     : 6
Способность читать области Lead-in и Lead-out     : Нет
Заполнение пропущенных сэмплов тишиной            : Да
Удаление блоков с тишиной в начале и конце        : Нет
При вычислениях CRC использовались нулевые сэмплы : Да
Интерфейс                                         : Встроенный Win32-интерфейс для Win NT/2000

Выходной формат : Внутренние WAV-операции
Формат сэмплов  : 44.100 Гц; 16 бит; стерео

TOC извлечённого CD

     Трек |   Старт  | Длительность | Начальный сектор | Конечный сектор
    ---------------------------------------------------------------------
       1  |  0:00.00 |    3:16.49   |           0      |      14748     
       2  |  3:16.49 |    3:57.68   |       14749      |      32591     
       3  |  7:14.42 |    4:01.73   |       32592      |      50739     
       4  | 11:16.40 |    2:48.16   |       50740      |      63355     
       5  | 14:04.56 |    3:53.42   |       63356      |      80872     
       6  | 17:58.23 |    3:36.49   |       80873      |      97121     
       7  | 21:34.72 |    3:05.61   |       97122      |     111057     
       8  | 24:40.58 |    4:50.32   |      111058      |     132839     
       9  | 29:31.15 |    4:13.57   |      132840      |     151871     
      10  | 33:44.72 |    3:58.04   |      151872      |     169725     
      11  | 37:43.01 |    3:26.71   |      169726      |     185246     
      12  | 41:09.72 |    3:57.12   |      185247      |     203033     
      13  | 45:07.09 |    4:31.05   |      203034      |     223363     
      14  | 49:38.14 |    3:48.08   |      223364      |     240471     
      15  | 53:26.22 |    3:48.73   |      240472      |     257644     
      16  | 57:15.20 |    2:56.39   |      257645      |     270883     
      17  | 60:11.59 |    3:43.28   |      270884      |     287636     
      18  | 63:55.12 |    4:13.14   |      287637      |     306625     
      19  | 68:08.26 |    3:22.65   |      306626      |     321840     
      20  | 71:31.16 |    4:10.02   |      321841      |     340592     

Характеристики диапазона извлечения и сообщения об ошибках

Выбранный диапазон

     Имя файла M:\Эстонская музыка\Сборники\Kuumad Eesti Hitid. 20 Kuuma Lugu (2000)\Kuumad Eesti Hitid. 20 Kuuma Lugu.wav

     Пиковый уровень 100.0 %
     Качество диапазона 100.0 %
     CRC теста A1430CAE
     CRC копии A1430CAE
     Копирование... OK

Ошибок не произошло

 
AccurateRip: сводка
 
Трек  1  нет в базе данных
Трек  2  нет в базе данных
Трек  3  нет в базе данных
Трек  4  нет в базе данных
Трек  5  нет в базе данных
Трек  6  нет в базе данных
Трек  7  нет в базе данных
Трек  8  нет в базе данных
Трек  9  нет в базе данных
Трек 10  нет в базе данных
Трек 11  нет в базе данных
Трек 12  нет в базе данных
Трек 13  нет в базе данных
Трек 14  нет в базе данных
Трек 15  нет в базе данных
Трек 16  нет в базе данных
Трек 17  нет в базе данных
Трек 18  нет в базе данных
Трек 19  нет в базе данных
Трек 20  нет в базе данных
 
Ни одного трека нет в базе AccurateRip

Конец отчёта
pic pic pic pic

Примечание: в 2003 году сборник не выпускался

Страница 1 из 1

new_topic  reply_topic

Текущее время: 25-Июл 04:02
Часовой пояс: GMT + 4

m Сделано с любовью